Kdenlive   bug tracker Home page

View Issue Details Jump to Notes ] Issue History ] Print ]
IDProjectCategoryView StatusDate SubmittedLast Update
0002900KdenliveEffectspublic2012-12-26 14:112014-08-06 00:12
Reporterfermin 
Assigned Tovpinon 
PrioritynormalSeverityminorReproducibilityhave not tried
StatusresolvedResolutionfixed 
Platformi386OSFedoraOS Version16
Product VersionRecent git 
Target VersionFixed in Version0.9.10 
Summary0002900: Crash when doing clip stabilize (transcode)
DescriptionCrash when doing clip stabilize (transcode). Attached kcrash.
Steps To ReproduceStabilize a clip using option: stabilize (transcode).
TagsNo tags attached.
Build/Install MethodManual build from Git
Attached Files? file icon kdenlive-20121226-140631.kcrash [^] (8,423 bytes) 2012-12-26 14:11 [Show Content]
? file icon kdenlive-20130223-173024.kcrash [^] (9,670 bytes) 2013-02-23 21:33 [Show Content]
mov file icon IMG_1313.MOV [^] (10,576,467 bytes) 2013-03-03 14:47

- Relationships
has duplicate 0002924resolvedsunab Crash when using Stabilize transcode 

-  Notes
(0008909)
j-b-m (administrator)
2012-12-27 01:55

Oh, had not seen that report... What kind of clip are you trying to stabilize? Can you paste the output of FFmpeg?

ffmpeg -i myclip.mpg
(0008910)
fermin (reporter)
2012-12-27 02:30

It's a video created with a Canon IXUS 120 IS camera:


ffmpeg version 0.8.12, Copyright (c) 2000-2011 the FFmpeg developers
  built on Jun 13 2012 09:57:57 with gcc 4.6.3 20120306 (Red Hat 4.6.3-2)
  configuration: --prefix=/usr --bindir=/usr/bin --datadir=/usr/share/ffmpeg --incdir=/usr/include/ffmpeg --libdir=/usr/lib --mandir=/usr/share/man --arch=i686 --extra-cflags='-O2 -g -pipe -Wall -Wp,-D_FORTIFY_SOURCE=2 -fexceptions -fstack-protector --param=ssp-buffer-size=4 -m32 -march=i686 -mtune=atom -fasynchronous-unwind-tables' --enable-bzlib --enable-libcelt --enable-libdc1394 --enable-libdirac --enable-libfreetype --enable-libgsm --enable-libmp3lame --enable-libopenjpeg --enable-librtmp --enable-libschroedinger --enable-libspeex --enable-libtheora --enable-libvorbis --enable-libvpx --enable-libx264 --enable-libxvid --enable-x11grab --enable-avfilter --enable-postproc --enable-pthreads --disable-static --enable-shared --enable-gpl --disable-debug --disable-stripping --shlibdir=/usr/lib --cpu=i686 --enable-runtime-cpudetect
  libavutil 51. 9. 1 / 51. 9. 1
  libavcodec 53. 8. 0 / 53. 8. 0
  libavformat 53. 5. 0 / 53. 5. 0
  libavdevice 53. 1. 1 / 53. 1. 1
  libavfilter 2. 23. 0 / 2. 23. 0
  libswscale 2. 0. 0 / 2. 0. 0
  libpostproc 51. 2. 0 / 51. 2. 0

Seems stream 0 codec frame rate differs from container frame rate: 6000.00 (6000/1) -> 30.00 (30/1)
Input #0, mov,mp4,m4a,3gp,3g2,mj2, from 'MVI_2044.MOV':
  Metadata:
    major_brand : qt
    minor_version : 537331968
    compatible_brands: qt CAEP
    creation_time : 2011-03-29 19:38:27
  Duration: 00:02:29.43, start: 0.000000, bitrate: 22511 kb/s
    Stream #0.0(eng): Video: h264 (Constrained Baseline), yuvj420p, 1280x720, 21804 kb/s, 30 fps, 30 tbr, 3k tbn, 6k tbc
    Metadata:
      creation_time : 2011-03-29 19:38:27
    Stream #0.1(eng): Audio: pcm_s16le, 44100 Hz, 1 channels, s16, 705 kb/s
    Metadata:
      creation_time : 2011-03-29 19:38:27
At least one output file must be specified
(0009070)
ttguy (updater)
2013-01-09 14:59
edited on: 2013-01-24 11:23

This a duplicate of http://www.kdenlive.org/mantis/view.php?id=2924 [^] and I report on that one that I can reproduce this issue on
 
kdenlive 0.9.3+git20130117.91ea0353-0ubuntu0~sunab~precise1
mlt 0.8.7+git20130109.ba392dac-0ubuntu0~sunab~precise1
frei0r 1.3.0+git20130119.c3fdd674-0ubuntu0~sunab~precise1

and I have upload a backtrace on that report.

(0009323)
fermin (reporter)
2013-02-23 21:37

Yep ttguy, your bug is a duplicate of this.
With last version (v0.9.4 from rpmfusion repo in fedora 18), I get same crash (segmentation fault). Bugtrace is attached.
(0009362)
ttguy (updater)
2013-03-03 14:36

Mine is ipod footage

$ ffmpeg -i "/home/ttguy/Videos/mov/Dianas_ipod/IMG_1404.MOV"
ffmpeg version 0.8.5-4:0.8.5-0ubuntu0.12.04.1, Copyright (c) 2000-2012 the Libav developers
  built on Jan 24 2013 18:03:14 with gcc 4.6.3
*** THIS PROGRAM IS DEPRECATED ***
This program is only provided for compatibility and will be removed in a future release. Please use avconv instead.

Seems stream 0 codec frame rate differs from container frame rate: 1200.00 (1200/1) -> 24.00 (24/1)
Input #0, mov,mp4,m4a,3gp,3g2,mj2, from '/home/ttguy/Videos/mov/Dianas_ipod/IMG_1404.MOV':
  Metadata:
    major_brand : qt
    minor_version : 0
    compatible_brands: qt
    creation_time : 2012-01-05 05:32:23
    encoder : 5.0.1
    encoder-eng : 5.0.1
    date : 2012-01-05T16:32:23+1100
    date-eng : 2012-01-05T16:32:23+1100
  Duration: 00:00:25.10, start: 0.000000, bitrate: 10325 kb/s
    Stream #0.0(und): Video: h264 (Baseline), yuv420p, 1280x720, 10266 kb/s, 27.85 fps, 24 tbr, 600 tbn, 1200 tbc
    Metadata:
      creation_time : 2012-01-05 05:32:23
    Stream #0.1(und): Audio: aac, 44100 Hz, mono, s16, 63 kb/s
    Metadata:
      creation_time : 2012-01-05 05:32:23
At least one output file must be specified
(0009363)
ttguy (updater)
2013-03-03 21:48

I uploaded IMG_1313.MOV as a sample that is broken for me.
(0009385)
ttguy (updater)
2013-03-15 13:30
edited on: 2013-03-15 13:50

So in
kdenlive 0.9.5+git20130311.2ab823a1-0ubuntu0~sunab~precise1
frei0r 1.3.0+git20130119.c3fdd674-0ubuntu0~sunab~precise1
melt 0.8.8+git20130220.f03d0f54-0ubuntu0~sunab~precise1
ffmpeg version 0.8.5-4:0.8.5-0ubuntu0.12.04.1,
This now working for me for .dv format files.
Still crashing on .mov from iPod

(0009388)
fermin (reporter)
2013-03-19 20:42

I updated my installation with lastest kdenlive and mlt git versions and now it works ok with the .mov files (tried with same files that always fail before).
(0009452)
ttguy (updater)
2013-04-01 02:58

Sunboy has raised this issue too http://kdenlive.org/mantis/view.php?id=3043 [^]
(0009467)
fermin (reporter)
2013-04-04 23:43

Mmm, I cannot reproduce it with that svn versions. I think that I must report an important change I made to my desktop: now I'm using a 64 bits distro (Fedora 18 64 bits + svn versions of kdenlive and mlt). I don't know if it could be relevant, but well, I tell all you.
(0009639)
Dmitry (reporter)
2013-12-24 15:10

same thing. reproducable.
kdenlive 0.9.6
(0010197)
vpinon (administrator)
2014-08-06 00:12

first stabilizers were not always stable, the latest one acivated in mlt & kdenlive is solving most issues

- Issue History
Date Modified Username Field Change
2012-12-26 14:11 fermin New Issue
2012-12-26 14:11 fermin File Added: kdenlive-20121226-140631.kcrash
2012-12-27 01:55 j-b-m Note Added: 0008909
2012-12-27 01:55 j-b-m Assigned To => j-b-m
2012-12-27 01:55 j-b-m Status new => feedback
2012-12-27 02:30 fermin Note Added: 0008910
2012-12-27 02:30 fermin Status feedback => assigned
2013-01-09 14:59 ttguy Note Added: 0009070
2013-01-24 11:23 ttguy Note Edited: 0009070 View Revisions
2013-02-23 21:33 fermin File Added: kdenlive-20130223-173024.kcrash
2013-02-23 21:37 fermin Note Added: 0009323
2013-02-23 21:46 j-b-m Relationship added has duplicate 0002924
2013-03-03 14:36 ttguy Note Added: 0009362
2013-03-03 14:47 ttguy File Added: IMG_1313.MOV
2013-03-03 21:48 ttguy Note Added: 0009363
2013-03-15 13:30 ttguy Note Added: 0009385
2013-03-15 13:35 ttguy Note Edited: 0009385 View Revisions
2013-03-15 13:50 ttguy Note Edited: 0009385 View Revisions
2013-03-19 20:42 fermin Note Added: 0009388
2013-04-01 02:58 ttguy Note Added: 0009452
2013-04-04 23:43 fermin Note Added: 0009467
2013-12-24 15:10 Dmitry Note Added: 0009639
2014-08-06 00:12 vpinon Note Added: 0010197
2014-08-06 00:12 vpinon Status assigned => resolved
2014-08-06 00:12 vpinon Fixed in Version => 0.9.10
2014-08-06 00:12 vpinon Resolution open => fixed
2014-08-06 00:12 vpinon Assigned To j-b-m => vpinon


Copyright © 2000 - 2014 MantisBT Team
Powered by Mantis Bugtracker