Kdenlive   bug tracker Home page

View Issue Details Jump to Notes ] Issue History ] Print ]
IDProjectCategoryView StatusDate SubmittedLast Update
0000401KdenliveRenderingpublic2008-11-24 02:292008-12-29 16:27
Reporternicedanmonkey 
Assigned Tomadsdyd 
PrioritynormalSeveritymajorReproducibilityalways
StatusclosedResolutionduplicate 
PlatformOSOS Version
Product Version0.7.0 
Target VersionFixed in Version 
Summary0000401: Audio playback is extremely fast and distorted after rendering a project.
DescriptionWhen using KDENLive I downloaded from the debian-multimedia repository the videos I upload from my digital camera sound fine in the preview window but when I render the project the audio comes out extremely distorted and fast.

When using KDENLive that I built using the Build Wizard the audio is distorted and fast in the preview window and when I render the project.

The problem occurs whether I choose NTSC and PAL. I've tried rendering in DVD 4:3 and YouTube formats
TagsNo tags attached.
Build/Install Method3rd party package
Attached Files? file icon DSCF2708.AVI [^] (3,548,772 bytes) 2008-11-24 13:46

- Relationships
duplicate of 0000297closedddennedy MOV / AVI files crashing Kdenlive and showing up with incorrect sound previews 

-  Notes
(0001373)
cinephiliac (updater)
2008-11-24 04:02

Thanks for filing this bug report,

Could you let us know if your videos play properly or not in Inigo and FFplay independently, as well as what revision you're using. You can find information on how to do this at http://en.wikibooks.org/wiki/Kdenlive/Reporting_bugs [^] (under "Versions" and "playback and Rendering Testing" respectively).

What types of files you're trying to bring it would be great, too.

Thanks for your help with filing this!
(0001377)
nicedanmonkey (reporter)
2008-11-24 13:44

The video plays fine under FFplay but under Inigo the sound is messed up.
Here is my version info for kdenlive built with the build wizard:

Kdenlive Builder Wizard version: 0.7.1
ffmpeg: Revision: 15918 Last Changed Date: 2008-11-23 13:36:44 -0600 (Sun, 23 Nov 2008)
mlt: Revision: 1240 Last Changed Date: 2008-11-16 23:57:32 -0600 (Sun, 16 Nov 2008)
mlt++: Revision: 1240 Last Changed Date: 2008-11-05 23:32:23 -0600 (Wed, 05 Nov 2008)
kdenlive: Revision: 2722 Last Changed Date: 2008-11-23 13:34:31 -0600 (Sun, 23 Nov 2008)
Qt: 4.4.3
KDE: 4.1.3 (KDE 4.1.3)
Kdenlive: 0.7

I'll attach a sample of a video file that I'm using.
(0001385)
nicedanmonkey (reporter)
2008-11-24 20:01

I was checking through other bugs and this one seems very similar to my bug.

http://www.kdenlive.org/mantis/view.php?id=297 [^]

The sound plays very quickly through the first half of the video clip and then nothing.
(0001390)
madsdyd (administrator)
2008-11-24 21:07

OK, this is pcm_u8 mono again:

Input #0, avi, from 'DSCF2708.AVI':
  Duration: 00:00:06.00, start: 0.000000, bitrate: 4731 kb/s
    Stream #0.0: Video: mjpeg, yuvj422p, 320x240, 30.00 tb(r)
    Stream #0.1: Audio: pcm_u8, 11024 Hz, mono, s16, 88 kb/s

Duplicate of 297, I am afraid.
(0001391)
madsdyd (administrator)
2008-11-24 21:07

0000297 duplicate I am afraid.
(0001403)
ddennedy (developer)
2008-11-25 04:34

fixed in MLT SVN r1242

- Issue History
Date Modified Username Field Change
2008-11-24 02:29 nicedanmonkey New Issue
2008-11-24 02:29 nicedanmonkey Build/Install Method => 3rd party package
2008-11-24 04:02 cinephiliac Note Added: 0001373
2008-11-24 04:02 cinephiliac Status new => feedback
2008-11-24 13:44 nicedanmonkey Note Added: 0001377
2008-11-24 13:46 nicedanmonkey File Added: DSCF2708.AVI
2008-11-24 20:01 nicedanmonkey Note Added: 0001385
2008-11-24 21:07 madsdyd Note Added: 0001390
2008-11-24 21:07 madsdyd Note Added: 0001391
2008-11-24 21:07 madsdyd Relationship added duplicate of 0000297
2008-11-24 21:07 madsdyd Duplicate ID 0 => 297
2008-11-24 21:07 madsdyd Status feedback => resolved
2008-11-24 21:07 madsdyd Resolution open => duplicate
2008-11-24 21:07 madsdyd Assigned To => madsdyd
2008-11-25 04:34 ddennedy Note Added: 0001403
2008-12-29 16:27 madsdyd Status resolved => closed


Copyright © 2000 - 2014 MantisBT Team
Powered by Mantis Bugtracker