Panasonic DMC-FZ28

ffmpeg says this about the sample:

Input #0, mov,mp4,m4a,3gp,3g2,mj2, from '/tmp/panasonic_lumix_dmc-fz28.mov':
Duration: 00:00:08.00, start: 0.000000, bitrate: 24006 kb/s
Stream #0.0(eng): Video: mjpeg, yuvj420p, 1280x720, 30 tbr, 30 tbn, 30 tbc
Stream #0.1(eng): Audio: pcm_s16be, 16000 Hz, 1 channels, s16, 256 kb/s

Works really well with kdenlive. I'de recommend any mjpeg and progressive video shooting camera for Linux users since you'd avoid the AVCHD (t/c)rap. And why shoot interlaced video these days anyway, it's not like many people have interlacing displays or screens anymore...

The camera is a bit slow to focus and zoom is slow, microphone is not very good either, but it is a good buy anyway.